img
Planets Sun Sun Sun
Статистика раздачи
Автор: mari | Размер: 14.18 ГБ | Добавлен: 07 окт 2019
Скачать торрент
Скачать торрент

СообщениеДобавлено: 07 окт 2019 

Аляска: Семья из леса (7 сезон, 1-11 серии из 11) / Discovery. Alaskan Bush People


Перевод: Профессиональный (многоголосый, закадровый), cубтитры: отсутствуют
Формат: HDTVRip 720р, MKV, H.264, MP2
Страна: США
Режиссер: Т.Дж. Шанкс, Джейсон Берман, Эзра Эпвелл
Жанр: документальный, выживание, история
Продолжительность: 11 х ~ 00:44:00
Год выпуска: 2019

В ролях: Билл Браун, Гэйб Браун, Мэтт Браун

Описание: В глуши Аляски живет семья, все дети которой родились и выросли среди дикой природы. Билли Браун, его жена Эми и их семеро детей – пятеро сыновей и две дочери – удалились от цивилизации и почти не контактируют с другими людьми. Они даже выработали уникальный диалект и называют себя «волчьей стаей». Едва ли в наше время во всей Америке найдется вторая такая семья. После женитьбы Ноа в семействе появляется еще одна дочка. Как Брауны с ней уживутся, и уживутся ли вовсе?

Рейтинг на:


Видео: 1280x720 (16:9), 50,000 fps, AVC (х264), , 4000 Кбит/сек, ~ 0.087 bit/pixel
Аудио: 48 kHz, MPEG Layer 2, 2 ch, ~192.00 kbps avg
(тех. данные всех серий идентичны)

Общее
Уникальный идентификатор : 303909482834807442782661737797318535048 (0xE4A2D65BBFC1DEBDFF365871D256E788)
Полное имя : F:\КИНО\Аляска семья из леса HDTVRip 720p S07 Starik60\01 Аляска семья из леса by Starik60.mkv
Формат : Matroska
Версия формата : Version 2
Размер файла : 1,28 Гбайт
Продолжительность : 43 м. 47 с.
Режим общего битрейта : Постоянный
Общий поток : 4197 Кбит/сек
Программа кодирования : Lavf54.63.104
Библиотека кодирования : Lavf54.63.104

Видео
Идентификатор : 1
Формат : AVC
Формат/Информация : Advanced Video Codec
Профиль формата :
Настройки формата : CABAC / 3 Ref Frames
Параметр CABAC формата : Да
Параметр RefFrames формата : 3 кадра
Идентификатор кодека : V_MPEG4/ISO/AVC
Продолжительность : 43 м. 47 с.
Вид битрейта : Постоянный
Битрейт : 4000 Кбит/сек
Ширина : 1280 пикселей
Высота : 720 пикселей
Соотношение сторон : 16:9
Режим частоты кадров : Постоянный
Частота кадров : 50,000 кадров/сек
Стандарт вещания : PAL
Цветовое пространство : YUV
Субдискретизация насыщенности : 4:2:0
Битовая глубина : 8 бит
Тип развёртки : Прогрессивная
Бит/(Пиксели*Кадры) : 0.087
Размер потока : 1,20 Гбайт (93%)
Default : Нет
Forced : Нет
Цветовой диапазон : Limited
Основные цвета : BT.709
Характеристики трансфера : BT.709
Коэффициенты матрицы : BT.709

Аудио
Идентификатор : 2
Формат : MPEG Audio
Версия формата : Version 1
Профиль формата : Layer 2
Идентификатор кодека : A_MPEG/L2
Идентификатор кодека/Подсказка : MP2
Продолжительность : 43 м. 47 с.
Вид битрейта : Постоянный
Битрейт : 192 Кбит/сек
Каналы : 2 канала
Частота : 48,0 КГц
Метод сжатия : С потерями
Задержка видео : 20 мс.
Размер потока : 60,1 Мбайт (5%)
Язык : English
Default : Да
Forced : Нет







   Похожие торренты   Размер 
В этой теме нет новых непрочитанных сообщений. Аляска: Семья из леса (7 сезон, 1-6 серии из ?) / Discovery. Alaskan Bush People (Т.Дж. Шанкс, Джейсон Берман, Эзра Эпвелл) [2019, документальный, выживание, история, HDTVRip 720p] MVO

7.72 ГБ

В этой теме нет новых непрочитанных сообщений. Аляска: Семья из леса (7 сезон, 1-5 серии из ?) / Discovery. Alaskan Bush People (Т.Дж. Шанкс, Джейсон Берман, Эзра Эпвелл) [2019, документальный, выживание, история, HDTVRip 720p] MVO

6.42 ГБ

В этой теме нет новых непрочитанных сообщений. Аляска: Семья из леса (7 сезон, 1-11 серии из 11) / Discovery. Alaskan Bush People (Т.Дж. Шанкс, Джейсон Берман, Эзра Эпвелл) [2019, документальный, выживание, история, HDTVRip] MVO

6.09 ГБ

В этой теме нет новых непрочитанных сообщений. Аляска: Семья из леса (7 сезон, 1-6 серии из ?) / Discovery. Alaskan Bush People (Т.Дж. Шанкс, Джейсон Берман, Эзра Эпвелл) [2019, документальный, выживание, история, HDTVRip] MVO

3.31 ГБ

В этой теме нет новых непрочитанных сообщений. Аляска: Семья из леса (7 сезон, 1-5 серии из ?) / Discovery. Alaskan Bush People (Т.Дж. Шанкс, Джейсон Берман, Эзра Эпвелл) [2019, документальный, выживание, история, HDTVRip] MVO

2.76 ГБ

В этой теме нет новых непрочитанных сообщений. Аляска: Семья из леса (5 сезон, 1-10 серии из 10) / Discovery. Alaskan Bush People (Т.Дж. Шанкс, Джейсон Берман, Эзра Эпвелл) [2017, документальный, выживание, история, HDTVRip] MVO

5.25 ГБ

В этой теме нет новых непрочитанных сообщений. Аляска: Семья из леса (6 сезон, 1-10 серии из 10) / Discovery. Alaskan Bush People (Т.Дж. Шанкс, Джейсон Берман, Эзра Эпвелл) [2018, документальный, выживание, история, HDTVRip] VO

5.51 ГБ




Вы не можете начинать темы
Вы не можете отвечать на сообщения
Вы не можете редактировать свои сообщения
Вы не можете удалять свои сообщения
Вы не можете добавлять вложения

Перейти:  
cron
 Вход
ppkBB3cker v.2 © 2008-2014 @ PPK
[ Time : 0.013s | 17 Queries | GZIP : Off ]

Для правообладателей, рекламодателей и роскомнадзора: rstracker[собачка]yandex.ru
cron