img
Planets Sun Sun Sun
Статистика раздачи
Автор: mari | Размер: 9.26 ГБ | Добавлен: 15 окт 2019
Скачать торрент
Скачать торрент

СообщениеДобавлено: 15 окт 2019 

Мухаммед Али. Когда мы были королями / Moxammed Ali. When We Were Kings


Перевод: Профессиональный (одноголосый) / VHS /, Профессиональный (двухголосый) / МАТЧ /, cубтитры: Английские softsub (SRT)
Формат: WEB-DL 1080i, MKV, H.264, AC3
Страна: США
Режиссер: Леон Гаст
Жанр: документальный, биография, спорт
Продолжительность: 01:27:22
Год выпуска: 1996

Описание: Документальный фильм, рассказывающий о самом трудном поединке Мухаммеда Али против действительного тогда чемпиона в тяжёлой весовой категории Джорджа Формана, который состоялся в 1974 году в Киншаса (Заир) и вошедшего в историю под названием "Грохот в джунглях". После этого боя Али получил прозвище, которое, между прочим, он придумал себе сам - Величайший. Фильм наполнен интересными фактами, комментариями участников да и просто удивительными подробностями об этом бое и тех далеких и неспокойных временах. В 1997 году фильм получил Оскар от Американской киноакадемии за лучший полнометражный документальный фильм.

Рейтинг на:


Видео: 1920x1080 (16:9), 23,976 fps, AVC (х264), High@L4, 14,1 Мбит/сек, ~ 0.285 bit/pixel
Аудио #1: Русский 48 kHz, AC3 Dolby Digital, 2/0 (L,R) ch, ~192.00 kbps avg
Аудио #2: Русский 48 kHz, AC3 Dolby Digital, 2/0 (L,R) ch, ~192.00 kbps avg
Аудио #3: Английский 48 kHz, AC3 Dolby Digital, 3/2 (L,C,R,l,r) + LFE ch, ~640.00 kbps avg

Общее
Полное имя : When.We.Were.Kings.(1996).1080p.WEB-DL.2xRus.Eng-BLUEBIRD.mkv
Формат : Matroska
Версия формата : Version 4 / Version 2
Размер файла : 9,26 Гбайт
Продолжительность : 1 ч. 27 м.
Общий поток : 15,2 Мбит/сек
Название фильма : when.we.were.kings.1080p-trinity
Дата кодирования : UTC 2019-09-21 13:35:04
Программа кодирования : mkvmerge v8.0.0 (''Til The Day That I Die'') 32bit
Библиотека кодирования : libebml v1.3.1 + libmatroska v1.4.2

Видео
Идентификатор : 1
Формат : AVC
Формат/Информация : Advanced Video Codec
Профиль формата : High@L4
Настройки формата : CABAC / 4 Ref Frames
Параметр CABAC формата : Да
Параметр RefFrames формата : 4 кадра
Идентификатор кодека : V_MPEG4/ISO/AVC
Продолжительность : 1 ч. 27 м.
Битрейт : 14,1 Мбит/сек
Ширина : 1920 пикселей
Высота : 1080 пикселей
Соотношение сторон : 16:9
Режим частоты кадров : Постоянный
Частота кадров : 23,976 (24000/1001) кадра/сек
Цветовое пространство : YUV
Субдискретизация насыщенности : 4:2:0
Битовая глубина : 8 бит
Тип развёртки : Прогрессивная
Бит/(Пиксели*Кадры) : 0.285
Размер потока : 8,63 Гбайт (93%)
Заголовок : MPEG-4 AVC Video / 14.1 Mbps / 1080p / 23.976 fps / 16:9 / High Profile 4
Язык : English
Default : Да
Forced : Нет
Цветовой диапазон : Limited
Основные цвета : BT.709
Характеристики трансфера : BT.709
Коэффициенты матрицы : BT.709

Аудио #1
Идентификатор : 2
Формат : AC-3
Формат/Информация : Audio Coding 3
Идентификатор кодека : A_AC3
Продолжительность : 1 ч. 27 м.
Вид битрейта : Постоянный
Битрейт : 192 Кбит/сек
Каналы : 2 канала
Расположение каналов : Front: L R
Частота : 48,0 КГц
Частота кадров : 31,250 кадров/сек (1536 SPF)
Битовая глубина : 16 бит
Метод сжатия : С потерями
Размер потока : 120 Мбайт (1%)
Заголовок : rus (VHS) / AC3 / 2.0 / 48 kHz / 192 kbps / 16-bit
Язык : Russian
ServiceKind/String : Complete Main
Default : Да
Forced : Да

Аудио #2
Идентификатор : 3
Формат : AC-3
Формат/Информация : Audio Coding 3
Идентификатор кодека : A_AC3
Продолжительность : 1 ч. 27 м.
Вид битрейта : Постоянный
Битрейт : 192 Кбит/сек
Каналы : 2 канала
Расположение каналов : Front: L R
Частота : 48,0 КГц
Частота кадров : 31,250 кадров/сек (1536 SPF)
Битовая глубина : 16 бит
Метод сжатия : С потерями
Размер потока : 120 Мбайт (1%)
Заголовок : rus (MATCH) / AC3 / 2.0 / 48 kHz / 192 kbps / 16-bit
Язык : Russian
ServiceKind/String : Complete Main
Default : Нет
Forced : Нет

Аудио #3
Идентификатор : 4
Формат : E-AC-3
Формат/Информация : Enhanced Audio Coding 3
Идентификатор кодека : A_EAC3
Продолжительность : 1 ч. 27 м.
Вид битрейта : Постоянный
Битрейт : 640 Кбит/сек
Каналы : 6 каналов
Расположение каналов : Front: L C R, Side: L R, LFE
Частота : 48,0 КГц
Частота кадров : 187,500 кадров/сек (256 SPF)
Метод сжатия : С потерями
Размер потока : 400 Мбайт (4%)
Заголовок : eng / E-AC3 / 5.1 / 48 kHz / 640 kbps / 16-bit
Язык : English
ServiceKind/String : Complete Main
Default : Нет
Forced : Нет

Текст
Идентификатор : 5
Формат : UTF-8
Идентификатор кодека : S_TEXT/UTF8
Идентификатор кодека/Информация : UTF-8 Plain Text
Продолжительность : 1 ч. 26 м.
Битрейт : 110 бит/сек
ElementCount : 1756
Размер потока : 70,3 Кбайт (0%)
Заголовок : eng / SRT
Язык : English
Default : Нет
Forced : Нет







   Похожие торренты   Размер 
В этой теме нет новых непрочитанных сообщений. Мохаммед Али. Когда мы были королями / Moxammed Ali. When we were kings (Леон Гаст, Тэйлор Хэкфорд) [1996, документальный, VHSRip] VO

801.53 МБ

В этой теме нет новых непрочитанных сообщений. Меня зовут Мохаммед Али (1-2 части из 2) / What's My Name: Muhammad Ali (Антуан Фукуа) [2019, документальный, биография, спорт, WEB-DL 1080i] MVO / Blu-Ray / BDRip / HDTV

11.13 ГБ

В этой теме нет новых непрочитанных сообщений. Меня зовут Мохаммед Али / What's My Name: Muhammad Ali (Антуан Фукуа) [2019, биография, спорт, WEBRip] MVO

2.91 ГБ

В этой теме нет новых непрочитанных сообщений. Письмо из Масаньцзя / Letter from Masanjia (Леон Ли) [2018, документальный, драма, HDTV 1080i] MVO / Blu-Ray / BDRip / HDTV

1.52 ГБ

В этой теме нет новых непрочитанных сообщений. Спилберг / Spielberg (Сьюзен Лейси) [2017, документальный, биография, история, WEB-DL 1080i] DVO / Blu-Ray / BDRip / HDTV

10.8 ГБ

В этой теме нет новых непрочитанных сообщений. Фри-соло / National Geographic. Free Solo (Джимми Чин, Элизабет Чай Васархели) [2018, документальный, спорт, экстрим, HDTV 1080i] DVO / Blu-Ray / BDRip / HDTV

5.68 ГБ

В этой теме нет новых непрочитанных сообщений. Калигула. Что это было / Caligula with Mary Beard (Хьюго Макгрегор) [2013, документальный, история, биография, WEB-DL 1080i] DVO / Blu-Ray / BDRip / HDTV

4.99 ГБ




Вы не можете начинать темы
Вы не можете отвечать на сообщения
Вы не можете редактировать свои сообщения
Вы не можете удалять свои сообщения
Вы не можете добавлять вложения

Перейти:  
cron
 Вход
ppkBB3cker v.2 © 2008-2014 @ PPK
[ Time : 0.022s | 19 Queries | GZIP : Off ]

Для правообладателей, рекламодателей и роскомнадзора: rstracker[собачка]yandex.ru
cron