img
Planets Sun Sun Sun
Статистика раздачи
Автор: mari | Размер: 2.4 ГБ | Добавлен: 21 окт 2019
Скачать торрент
Скачать торрент

СообщениеДобавлено: 21 окт 2019 

Королевство белого волка (1 серия из 3) / NAT GEO WILD. Kingdom of The White Wolf


Перевод: Профессиональный (одноголосый) / Велес /, cубтитры: отсутствуют
Формат: HDTV 1080i, TS, H.264, MP2
Страна: США
Режиссер: Тони Гербер
Жанр: документальный, природа, флора, фауна
Продолжительность: 1 х ~ 00:44:00
Год выпуска: 2019

Описание: Фотограф и биолог National Geographic Ронан Донован путешествует по Арктике, чтобы запечатлеть жизнь знаменитых белых волков, которые не боятся людей и стараются держаться к ним как можно ближе. Ронан Донован в поисках неуловимого арктического волка. Начиная с первого года дневного взгляда на остров Элсмир, зрители познакомятся с семьей арктических волков, которые откармливаются летом и готовятся к долгой темной арктической зиме.

Рейтинг на:


Видео: 1920x1080 (16:9), 25,000 fps, AVC (х264), High@L4, 7036 Кбит/сек, ~ 0.136 bit/pixel
Аудио #1: Русский 48 kHz, MPEG Layer 2, 2 ch, ~192.00 kbps avg
Аудио #2: Английский 48 kHz, MPEG Layer 2, 2 ch, ~192.00 kbps avg
(тех. данные всех серий идентичны)

Доп. информация:
Спасибо автору релиза kyba62

Внимание! Раздача ведётся путём добавления новых серий; при каждом добавлении создается новый торрент. Чтобы начать докачку новой серии, пользователям необходимо сделать следующее:
(1) остановить скачивание,
(2) удалить старый торрент у себя из клиента (старые серии удалять не надо),
(3) скачать новый торрент и запустить его у себя в клиенте вместо старого, при этом указать клиенту путь в старую папку куда и должно происходить скачивание новых серий.

Ваш клиент при этом должен произвести хеширование (проверку) старой папки (если не производит сам - помогите ему сделать это), и будет докачивать только те серии которых у вас ещё нет. Старые серии при этом не удаляются, а продолжают раздаваться!

Если вы уже удалили старые серии, то предотвратить повторную закачку старых серий можно, отжав галочку в соответствующих местах при запуске нового торрента. По возможности, желательно не удалять старые серии как можно дольше чтобы релизёр не столько продолжал раздавать старые серии, а смог сконцентрироваться на новых.



Complete name : F:\Наладки\Королество белого волка\01. Поиск.ts
Format : MPEG-TS
File size : 2.40 GiB
Duration : 43 min 57 s
Overall bit rate mode : Variable
Overall bit rate : 7 810 kb/s

Video
ID : 308 (0x134)
Menu ID : 26008 (0x6598)
Format : AVC
Format/Info : Advanced Video Codec
Format profile : High@L4
Format settings : CABAC / 4 Ref Frames
Format settings, CABAC : Yes
Format settings, Reference : 4 frames
Format settings, GOP : M=4, N=28
Codec ID : 27
Duration : 43 min 57 s
Bit rate : 7 036 kb/s
Width : 1 920 pixels
Height : 1 080 pixels
Display aspect ratio : 16:9
Frame rate : 25.000 FPS
Standard : Component
Color space : YUV
Chroma subsampling : 4:2:0
Bit depth : 8 bits
Scan type : Interlaced
Scan type, store method : Separated fields
Scan order : Top Field First
Bits/(Pixel*Frame) : 0.136
Stream size : 2.16 GiB (90%)
Color range : Limited
Color primaries : BT.709
Transfer characteristics : BT.709
Matrix coefficients : BT.709

Audio #1
ID : 408 (0x198)
Menu ID : 26008 (0x6598)
Format : MPEG Audio
Format version : Version 1
Format profile : Layer 2
Codec ID : 3
Duration : 43 min 57 s
Bit rate mode : Constant
Bit rate : 192 kb/s
Channel(s) : 2 channels
Sampling rate : 48.0 kHz
Frame rate : 41.667 FPS (1152 SPF)
Compression mode : Lossy
Stream size : 60.4 MiB (2%)
Language : Russian

Audio #2
ID : 428 (0x1AC)
Menu ID : 26008 (0x6598)
Format : MPEG Audio
Format version : Version 1
Format profile : Layer 2
Codec ID : 3
Duration : 43 min 57 s
Bit rate mode : Constant
Bit rate : 192 kb/s
Channel(s) : 2 channels
Sampling rate : 48.0 kHz
Frame rate : 41.667 FPS (1152 SPF)
Compression mode : Lossy
Stream size : 60.4 MiB (2%)
Language : English



[font='Comic Sans MS']01. Поиск / The Search[/font]
В этой серии Ронан Донован, фотограф и профессиональный проводник National Geographic, поведет вас с собой в увлекательное путешествие по Арктике в период белых ночей короткого северного лета, что позволит вам полюбоваться неожиданным изобилием "Арктического Сада" в Долине волков в тот момент, когда Донован попробует войти в волчью стаю.


02. Королева-волчица / The Wolf Queen
После шести недель поиска фотограф Ронан Донован встречает новую стаю волков.
03. Последняя охота / The Last Hunt
Фотограф Ронан Донован, наконец, завоевал доверие белых волков и может наблюдать за их жизнью.






   Похожие торренты   Размер 
В этой теме нет новых непрочитанных сообщений. На защите носорогов / NAT GEO WILD. Chasing Rhinos (Тони Гербер) [2013, документальный, природа, флора, фауна, HDTV 1080i] VO / Blu-Ray / BDRip / HDTV

2.19 ГБ

В этой теме нет новых непрочитанных сообщений. Дикое королевство: Восстание (1 сезон, 1-6 серии из 6) / NAT GEO WILD. Savage Kingdom (Брэд Бестелинк) [2016, документальный, природа, флора, фауна, HDTV 1080i] VO / Blu-Ray / BDRip / HDTV

12.54 ГБ

В этой теме нет новых непрочитанных сообщений. На защите носорогов / NAT GEO WILD. Chasing Rhinos (Тони Гербер) [2013, документальный, природа, флора, фауна, HDTVRip] VO

624.59 МБ

В этой теме нет новых непрочитанных сообщений. Королевство обезьян (1-2 серии из 2) / NAT GEO WILD. Wild Kingdom Of The Apes (Кэтрин Йеллос) [2014, документальный, природа, флора, фауна, HDTVRip] DUB

1.08 ГБ

В этой теме нет новых непрочитанных сообщений. Самая большая в мире белая акула / NAT GEO WILD. World's Bigget Great White? [2019, документальный, природа, флора, фауна, HDTV 1080i] VO / Blu-Ray / BDRip / HDTV

2.38 ГБ

В этой теме нет новых непрочитанных сообщений. Волк против медведя / NAT GEO WILD. Wolf vs. Bear (Грэм Дуэйн) [2018, документальный, природа, флора, фауна, HDTV 1080i] VO / Blu-Ray / BDRip / HDTV

2.21 ГБ

В этой теме нет новых непрочитанных сообщений. Царство леопардов / NAT GEO WILD. Leopard Kingdom [2018, документальный, природа, флора, фауна, HDTV 1080i] VO / Blu-Ray / BDRip / HDTV

2.4 ГБ




Вы не можете начинать темы
Вы не можете отвечать на сообщения
Вы не можете редактировать свои сообщения
Вы не можете удалять свои сообщения
Вы не можете добавлять вложения

Перейти:  
cron
 Вход
ppkBB3cker v.2 © 2008-2014 @ PPK
[ Time : 0.023s | 19 Queries | GZIP : Off ]

Для правообладателей, рекламодателей и роскомнадзора: rstracker[собачка]yandex.ru
cron