img
Planets Sun Sun Sun
Статистика раздачи
Автор: mari | Размер: 4.44 ГБ | Добавлен: 21 окт 2019
Скачать торрент
Скачать торрент

СообщениеДобавлено: 21 окт 2019 

Наш второй мозг / The Gut: Our Second Brain (Le ventre notre deuxieme cerveau)


Перевод: Профессиональный (двухголосый) / СВ-Дубль /, cубтитры: Английские softsub (SRT)
Формат: WEB-DL 1080i, MKV, H.264, AC3
Страна: Франция
Режиссер: Сесиль Данжан
Жанр: документальный, научно-популярный
Продолжительность: 00:55:10
Год выпуска: 2013

Описание: В брюшной полости человека скрыты миллионы нейронов и сотни миллиардов бактерий, подспудно влияющих на личностные особенности и поведение. Авторы фильма приглашают совершить путешествие в недра тела, к разгадке тайн нашего второго мозга.

Рейтинг на:


Видео: 1920x1080 (16:9), 25,000 fps, AVC (х264), High@L4, 10,9 Мбит/сек, ~ 0.210 bit/pixel
Аудио #1: Русский 48 kHz, AC3 Dolby Digital, 2/0 (L,R) ch, ~192.00 kbps avg
Аудио #2: Французский 48 kHz, AC3 Dolby Digital, 2/0 (L,R) ch, ~192.00 kbps avg
Аудио #3: Aнглийский 48 kHz, AC3 Dolby Digital, 2/0 (L,R) ch, ~224.00 kbps avg

Общее
Полное имя : The.Gut.Our.Second.Brain.(2013).1080p.WEB-DL.Rus.Fre.Eng-BLUEBIRD.mkv
Формат : Matroska
Версия формата : Version 4 / Version 2
Размер файла : 4,44 Гбайт
Продолжительность : 55 м. 10 с.
Режим общего битрейта : Переменный
Общий поток : 11,5 Мбит/сек
Дата кодирования : UTC 2018-09-10 13:50:31
Программа кодирования : mkvmerge v8.0.0 (''Til The Day That I Die'') 32bit
Библиотека кодирования : libebml v1.3.1 + libmatroska v1.4.2

Видео
Идентификатор : 1
Формат : AVC
Формат/Информация : Advanced Video Codec
Профиль формата : High@L4
Настройки формата : CABAC / 4 Ref Frames
Параметр CABAC формата : Да
Параметр RefFrames формата : 4 кадра
Идентификатор кодека : V_MPEG4/ISO/AVC
Продолжительность : 55 м. 10 с.
Вид битрейта : Переменный
Битрейт : 10,9 Мбит/сек
Максимальный битрейт : 15,0 Мбит/сек
Ширина : 1920 пикселей
Высота : 1080 пикселей
Соотношение сторон : 16:9
Режим частоты кадров : Постоянный
Частота кадров : 25,000 кадров/сек
Цветовое пространство : YUV
Субдискретизация насыщенности : 4:2:0
Битовая глубина : 8 бит
Тип развёртки : Прогрессивная
Бит/(Пиксели*Кадры) : 0.210
Размер потока : 4,20 Гбайт (95%)
Default : Да
Forced : Нет
Цветовой диапазон : Limited
Основные цвета : BT.709
Характеристики трансфера : BT.709
Коэффициенты матрицы : BT.709

Аудио #1
Идентификатор : 2
Формат : AC-3
Формат/Информация : Audio Coding 3
Идентификатор кодека : A_AC3
Продолжительность : 55 м. 10 с.
Вид битрейта : Постоянный
Битрейт : 192 Кбит/сек
Каналы : 2 канала
Расположение каналов : Front: L R
Частота : 48,0 КГц
Частота кадров : 31,250 кадров/сек (1536 SPF)
Битовая глубина : 16 бит
Метод сжатия : С потерями
Размер потока : 75,8 Мбайт (2%)
Заголовок : rus AC3 2.0
Язык : Russian
ServiceKind/String : Complete Main
Default : Да
Forced : Да

Аудио #2
Идентификатор : 3
Формат : AC-3
Формат/Информация : Audio Coding 3
Идентификатор кодека : A_AC3
Продолжительность : 55 м. 10 с.
Вид битрейта : Постоянный
Битрейт : 192 Кбит/сек
Каналы : 2 канала
Расположение каналов : Front: L R
Частота : 48,0 КГц
Частота кадров : 31,250 кадров/сек (1536 SPF)
Битовая глубина : 16 бит
Метод сжатия : С потерями
Размер потока : 75,8 Мбайт (2%)
Заголовок : fre AC3 2.0
Язык : French
ServiceKind/String : Complete Main
Default : Нет
Forced : Нет

Аудио #3
Идентификатор : 4
Формат : E-AC-3
Формат/Информация : Enhanced Audio Coding 3
Идентификатор кодека : A_EAC3
Продолжительность : 55 м. 10 с.
Вид битрейта : Постоянный
Битрейт : 224 Кбит/сек
Каналы : 2 канала
Расположение каналов : Front: L R
Частота : 48,0 КГц
Частота кадров : 187,500 кадров/сек (256 SPF)
Метод сжатия : С потерями
Размер потока : 88,4 Мбайт (2%)
Заголовок : eng AC3 2.0
Язык : English
ServiceKind/String : Complete Main
Default : Нет
Forced : Нет

Текст
Идентификатор : 5
Формат : UTF-8
Идентификатор кодека : S_TEXT/UTF8
Идентификатор кодека/Информация : UTF-8 Plain Text
Продолжительность : 54 м. 1 с.
Битрейт : 89 бит/сек
ElementCount : 915
Размер потока : 35,4 Кбайт (0%)
Язык : English
Default : Нет
Forced : Нет







   Похожие торренты   Размер 
В этой теме нет новых непрочитанных сообщений. Наш второй мозг / Le ventre notre deuxieme cerveau (Сесиль Данжан) [2013, документальный, научно-популярный, HDTV 1080i] DVO / Blu-Ray / BDRip / HDTV

2.43 ГБ

В этой теме нет новых непрочитанных сообщений. Сила мозга (1-2 серии из 2) / Les pouvoirs du cerveau (Сесиль Данжан) [2015, документальный, научно-популярный, HDTVRip 720р] DVO / Blu-Ray / BDRip / HDTV

3.39 ГБ

В этой теме нет новых непрочитанных сообщений. Какого пола твой мозг? / BBC. Is Your Brain Male or Female? (Марк Батис) [2014, документальный, научно-популярный, HDTV 1080i] DVO / Blu-Ray / BDRip / HDTV

2.08 ГБ

В этой теме нет новых непрочитанных сообщений. Перегруженный мозг / Hyperconnectes - le cerveau en surcharge (Лоренс Серфати) [2016, документальный, научно-популярный, HDTVRip 720p] DVO / Blu-Ray / BDRip / HDTV

1.59 ГБ

В этой теме нет новых непрочитанных сообщений. Наш удивительный мозг (1-4 серии из 4) / Your Bleeped Up Brain (Эстер Ли) [2013, документальный, научно-популярный, психология, HDTVRip 720p] DUB / Blu-Ray / BDRip / HDTV

5.02 ГБ

В этой теме нет новых непрочитанных сообщений. Загадки тёмной материи / The Mystery of Dark Matter (Сесиль Данжан) [2012, документальный, космос, исследования, HDTV 1080i] DUB / Blu-Ray / BDRip / HDTV

3.28 ГБ

В этой теме нет новых непрочитанных сообщений. Перегруженный мозг / Hyperconnectes - le cerveau en surcharge (Лоренс Серфати) [2016, документальный, научно-популярный, HDTVRip] DVO

780.51 МБ




Вы не можете начинать темы
Вы не можете отвечать на сообщения
Вы не можете редактировать свои сообщения
Вы не можете удалять свои сообщения
Вы не можете добавлять вложения

Перейти:  
cron
 Вход
ppkBB3cker v.2 © 2008-2014 @ PPK
[ Time : 0.016s | 19 Queries | GZIP : Off ]

Для правообладателей, рекламодателей и роскомнадзора: rstracker[собачка]yandex.ru
cron